처음으로 | 로그인 | 회원가입 | 인증메일발송 |
티카페 맴버쉽
커뮤니티 커뮤니티
 공지사항   |  이용안내
 질문해결   |  꿀팁카페
 주식토크   |  전자화폐
 자유공간   |  토크카페
 영화토크   |  TV 토크
 애니토크   |  스포츠톡
 클라우드   |  감상후기
 익명토크   |  정치토크
funfun 취미생활
 게임토크   |  요리.맛집
 도서토크   |  여행.사진
 음악토크   |  낚시.바둑
 자동차톡   |  헬스.건강
 컴퓨터톡   |  패션.뷰티
 휴대폰톡   |  
 키덜트
funfun 펀펀엔조이
 유머톡톡   |  다큐창고
 영상펀펀   |  공포창고
 짤방창고   |  만화창고
 연예창고   |  힐링.애완
  이 벤 트   |  
포인트충전 포인트· 레벨 포인트 레벨 안내
 출석확인   |  로또615
 즉석복권   |  게임중독
 슬롯카페   |  티카페휠
 P선물      |  P구해요
 포인트톡


[정보] [VOD 신작소식] 미드소마( Midsommar )
글쓴이 : 베르쉐르크 날짜 : 2019-09-20 (금) 09:45 조회 : 2335

구글무비에 '미드소마'가 올라왔다는 얘기가 있네요.

'유전' 감독이 차기작으로 만든 작품인데, 나름 기다렸던 분들이 많으셨을 것 같네요.

토랭이 뜨면 잘하면 주말에 감상할 수 있겠네요. ^^

 

도움이 되셨다면 땡큐 버튼 클릭으로 작성자에게 감사 표시해주세요.
최근 감상후기 게시물
  • 일라이 추천
  • 넷플릭스 일라이
  • 더 룸 The Room.2019 을 보고
  • 말레피센트 2 봤으요
  • 이번생은 부동산이다 후기
  • 드립+0 2019-09-20 12:57 수
	.정 삭제
    개봉날 봤는데  ..  사실 되게 보기 힘든 작품입니다 참고하세요  .
    드립+0 2019-09-20 22:44 수
	.정 삭제
    네, 그런데 혹시 동일 감독의 이전 작품 '유전' 보셨나요?
    개인적으로는 '유전'의 공포와 불쾌감을 초월하는지 궁금하네요.
    드립+0 2019-09-23 10:46 수
	.정 삭제
    안초월해요 털끝만도 없음.. 그냥 스웨덴 하지제의 이야기를 공포? 조금 똘기 있게 표현한거 밖에없어요
    내용도 엉성하고..
    드립+0 2019-09-20 13:26 수
	.정 삭제
    19일날 나온다길래 기대했는데 아직도 안나오고 있네요 ㅜㅜ 빨리 보고싶어요
    드립+0 2019-09-20 17:47 수
	.정 삭제
    General
    Complete name                  : D:\일반영화\미드소마.mp4
    Format                        : MPEG-4
    Format profile                : Base Media
    Codec ID                      : isom (mp41)
    File size                      : 2.73 GiB
    Duration                      : 2 h 27 min
    Overall bit rate mode          : Variable
    Overall bit rate              : 2 649 kb/s
    Encoded date                  : UTC 1970-01-01 00:00:00
    Tagged date                    : UTC 1970-01-01 00:00:00
    Writing application            : PotEncoder

    Video
    ID                            : 1
    Format                        : AVC
    Format/Info                    : Advanced Video Codec
    Format profile                : [email protected]
    Format settings                : 1 Ref Frames
    Format settings, CABAC        : No
    Format settings, Reference fra : 1 frame
    Codec ID                      : avc1
    Codec ID/Info                  : Advanced Video Coding
    Duration                      : 2 h 27 min
    Bit rate                      : 2 479 kb/s
    Width                          : 1 280 pixels
    Height                        : 720 pixels
    Display aspect ratio          : 16:9
    Frame rate mode                : Variable
    Frame rate                    : 29.970 (30000/1001) FPS
    Minimum frame rate            : 29.970 FPS
    Maximum frame rate            : 29.989 FPS
    Color space                    : YUV
    Chroma subsampling            : 4:2:0
    Bit depth                      : 8 bits
    Scan type                      : Progressive
    Bits/(Pixel*Frame)            : 0.090
    Stream size                    : 2.56 GiB (94%)
    Encoded date                  : UTC 1970-01-01 00:00:00
    Tagged date                    : UTC 1970-01-01 00:00:00
    Codec configuration box        : avcC

    Audio
    ID                            : 2
    Format                        : AAC LC
    Format/Info                    : Advanced Audio Codec Low Complexity
    Codec ID                      : mp4a-40-2
    Duration                      : 2 h 27 min
    Bit rate mode                  : Variable
    Bit rate                      : 165 kb/s
    Channel(s)                    : 2 channels
    Channel layout                : L R
    Sampling rate                  : 48.0 kHz
    Frame rate                    : 46.875 FPS (1024 SPF)
    Compression mode              : Lossy
    Stream size                    : 174 MiB (6%)
    Encoded date                  : UTC 1970-01-01 00:00:00
    Tagged date                    : UTC 1970-01-01 00:00:00

    기다리는 사람들이 좀 있는 것 같던데 의외군요.
    1080p로 당일에 풀릴 줄 알았는데.. 웹하드엔 720p로 당일 풀렸습니다.
    드립+0 2019-09-20 23:00 수
	.정 삭제
    그러게요, 영화 내 사운드 효과가 어떨지 모르겠지만..
    최소한 화질은 1080p 급에 사운드는 5.1 채널 릴로 감상하고 싶네요.
    드립+0 2019-09-20 20:30 수
	.정 삭제
    빨리 보고싶어요~
    드립+0 2019-09-20 20:53 수
	.정 삭제
    30분 확장판은 디즈니+로만 나온다는데 한국은 어떻게 해주려나..
    드립+0 2019-09-20 22:42 수
	.정 삭제
    그러게요. 작품이 작품인 만큼 무삭제 확장판으로 봐야되는데..
    해외 사이트에서 확인한 결과는 기존 148분에서 171분으로 23분이 추가된
    확장판이 10월 8일에 독립형 DVD 로 출시된다는 소식이 있는 것 같군요.
    드립+0 2019-09-20 23:01 수
	.정 삭제
    만세 만세 ~
    드립+0 2019-09-21 19:14 수
	.정 삭제
    720p 떴는데 좀 더 기다려야 할런지 이걸 2시간 30분이 넘는데 화질이 영 ㅠ
    드립+0 2019-09-22 21:34 수
	.정 삭제
    그러니까
    번호 분류 제목 글쓴이날짜 조회 추천
    134278 일반   아놀드 슈워제네거와 린다 해밀턴이 한국에... Aminaswan 18:09 193 0
    134276 질문   여러분이 생각하는 최고의 공포영화는 무엇인가요? +6 디어사이드 18:01 66 0
    134272 추천   오랜만에 도둑들을 다시 보니 +1 태양왕 16:35 145 0
    134251 일반   2020년 개봉 예정 DC, 마블 히어로 무비들 +7 봉구랑ㅇ 12:43 862 0
    134250 일반   조잡해보이는 애니 - 아담스패밀리 - 후속편 제작 확정. 벌써? +1 봉구랑ㅇ 12:29 209 0
    134237 정보   말레피센트 2 가이드 리뷰 유천랑 07:45 353 0
    134236 추천   넷플릭스 일라이 후기 마마마머마멈 03:47 680 1
    134230 일반   금요일-북미박스오피스 - 1위 말2, 2위 좀비2 보다 놀라운 ?? -기생충 +3 봉구랑ㅇ 00:23 659 0
    134208 일반   역대 판타지 영화 TOP5 +15 dlfmzldk 2019-10-19 1447 1
    134195 추천   김복남살인사건의전말 희대의 역작 +13 토미07 2019-10-19 1595 1
    134139 일반   영화 -더락의 월컴투정글 - 더락 영화중 망한 영화인데.. 볼만한가요? +5 봉구랑ㅇ 2019-10-19 677 0
    134134 일반   영화 기생충 일러스트포스터 +3 dlfmzldk 2019-10-19 1067 1
    134133 일반   양자물리학 +5 일발백중 2019-10-19 297 0
    134132 일반   생각보다 괜찮은영화인데 다들 모르는 영화 한편 추천해볼렵니다. +2 navernaver 2019-10-19 1197 0
    134129 질문   조커정규ost발매됬나요? +1 유천랑 2019-10-19 160 0
    134109 질문   영화제목좀 알려주세요. +3 닭똥집튀김 2019-10-19 311 0
    134099 정보   양자 물리학 이랬으면 리얼 사람들이 100퍼센트 10점주고같음. +6 naviya 2019-10-19 1366 2
    134096 일반   조커 후기(어느정도 스포?) +7 자네 2019-10-19 231 0
    134095 질문   영화 조커 질문 +3 sjsndx 2019-10-19 131 0
    134092 정보   폴 다노, DC '더 배트맨' 출연 확정..빌런 리들러 역 맡는다 +8 lambretta 2019-10-19 596 1
    134081 일반   나쁜 녀석들... 보고 느낀점.. +9 스프라이신 2019-10-18 1229 0
    134073 일반   조커라 적고 배트맨 프리퀄이라 읽는다. +9 Albatross 2019-10-18 1124 1
    134070 일반   곧 개봉한다는 패트와 매트 극장판 +5 4005 2019-10-18 1410 0
    134067 일반   조커 영화관에서 보고 왓네요(노스포) +3 거긴앙대 2019-10-18 395 0
    134066 일반   가타카(Gattaca)1997 재감상후기 +2 또다른세상 2019-10-18 242 0
    1 2 3 4 5 6 7 8 9 10 다음 맨끝

    [게시판 단축키]
    또는: 이전페이지  ⓦ: 맨 위로
    또는: 다음페이지  ⓢ: 맨 아래로